  0
SECTION
  2
HEADER
  9
$ACADVER
  1
AC1015
  9
$ACADMAINTVER
 70
     6
  9
$DWGCODEPAGE
  3
ANSI_1252
  9
$INSBASE
 10
0.0
 20
0.0
 30
0.0
  9
$EXTMIN
 10
0.0
 20
0.0
 30
0.0
  9
$EXTMAX
 10
558.8
 20
431.8
 30
0.0
  9
$LIMMIN
 10
0.0
 20
0.0
  9
$LIMMAX
 10
558.8
 20
431.8
  9
$ORTHOMODE
 70
     0
  9
$REGENMODE
 70
     1
  9
$FILLMODE
 70
     1
  9
$QTEXTMODE
 70
     0
  9
$MIRRTEXT
 70
     1
  9
$LTSCALE
 40
1.0
  9
$ATTMODE
 70
     1
  9
$TEXTSIZE
 40
4.2333333333
  9
$TRACEWID
 40
1.0
  9
$TEXTSTYLE
  7
Standard
  9
$CLAYER
  8
0
  9
$CELTYPE
  6
ByLayer
  9
$CECOLOR
 62
   256
  9
$CELTSCALE
 40
1.0
  9
$DISPSILH
 70
     0
  9
$DIMSCALE
 40
1.0
  9
$DIMASZ
 40
3.0
  9
$DIMEXO
 40
1.27
  9
$DIMDLI
 40
3.75
  9
$DIMRND
 40
0.0
  9
$DIMDLE
 40
0.0
  9
$DIMEXE
 40
2.0
  9
$DIMTP
 40
0.0
  9
$DIMTM
 40
0.0
  9
$DIMTXT
 40
4.2333333333
  9
$DIMCEN
 40
2.5
  9
$DIMTSZ
 40
0.0
  9
$DIMTOL
 70
     0
  9
$DIMLIM
 70
     0
  9
$DIMTIH
 70
     1
  9
$DIMTOH
 70
     1
  9
$DIMSE1
 70
     0
  9
$DIMSE2
 70
     0
  9
$DIMTAD
 70
     0
  9
$DIMZIN
 70
     1
  9
$DIMBLK
  1

  9
$DIMASO
 70
     1
  9
$DIMSHO
 70
     1
  9
$DIMPOST
  1

  9
$DIMAPOST
  1

  9
$DIMALT
 70
     0
  9
$DIMALTD
 70
     3
  9
$DIMALTF
 40
0.0393700787
  9
$DIMLFAC
 40
1.0
  9
$DIMTOFL
 70
     1
  9
$DIMTVP
 40
0.0
  9
$DIMTIX
 70
     0
  9
$DIMSOXD
 70
     0
  9
$DIMSAH
 70
     0
  9
$DIMBLK1
  1

  9
$DIMBLK2
  1

  9
$DIMSTYLE
  2
ISO-25
  9
$DIMCLRD
 70
     0
  9
$DIMCLRE
 70
     0
  9
$DIMCLRT
 70
     0
  9
$DIMTFAC
 40
1.0
  9
$DIMGAP
 40
1.524
  9
$DIMJUST
 70
     0
  9
$DIMSD1
 70
     0
  9
$DIMSD2
 70
     0
  9
$DIMTOLJ
 70
     0
  9
$DIMTZIN
 70
     1
  9
$DIMALTZ
 70
     0
  9
$DIMALTTZ
 70
     0
  9
$DIMUPT
 70
     0
  9
$DIMDEC
 70
     2
  9
$DIMTDEC
 70
     2
  9
$DIMALTU
 70
     2
  9
$DIMALTTD
 70
     3
  9
$DIMTXSTY
  7
Standard
  9
$DIMAUNIT
 70
     0
  9
$DIMADEC
 70
     0
  9
$DIMALTRND
 40
0.0
  9
$DIMAZIN
 70
     0
  9
$DIMDSEP
 70
    44
  9
$DIMATFIT
 70
     3
  9
$DIMFRAC
 70
     0
  9
$DIMLDRBLK
  1

  9
$DIMLUNIT
 70
     2
  9
$DIMLWD
 70
    -2
  9
$DIMLWE
 70
    -2
  9
$DIMTMOVE
 70
     0
  9
$LUNITS
 70
     2
  9
$LUPREC
 70
     2
  9
$SKETCHINC
 40
1.0
  9
$FILLETRAD
 40
10.0
  9
$AUNITS
 70
     0
  9
$AUPREC
 70
     0
  9
$MENU
  1
.
  9
$ELEVATION
 40
0.0
  9
$PELEVATION
 40
0.0
  9
$THICKNESS
 40
0.0
  9
$LIMCHECK
 70
     0
  9
$CHAMFERA
 40
10.0
  9
$CHAMFERB
 40
10.0
  9
$CHAMFERC
 40
20.0
  9
$CHAMFERD
 40
0.0
  9
$SKPOLY
 70
     0
  9
$TDCREATE
 40
2457008.447096794
  9
$TDUCREATE
 40
2457008.697096794
  9
$TDUPDATE
 40
2457008.447097025
  9
$TDUUPDATE
 40
2457008.697097025
  9
$TDINDWG
 40
0.0000000116
  9
$TDUSRTIMER
 40
0.0000000116
  9
$USRTIMER
 70
     1
  9
$ANGBASE
 50
0.0
  9
$ANGDIR
 70
     0
  9
$PDMODE
 70
     0
  9
$PDSIZE
 40
-1.0
  9
$PLINEWID
 40
0.0
  9
$SPLFRAME
 70
     0
  9
$SPLINETYPE
 70
     6
  9
$SPLINESEGS
 70
     8
  9
$HANDSEED
  5
D3
  9
$SURFTAB1
 70
     6
  9
$SURFTAB2
 70
     6
  9
$SURFTYPE
 70
     6
  9
$SURFU
 70
     6
  9
$SURFV
 70
     6
  9
$UCSBASE
  2

  9
$UCSNAME
  2

  9
$UCSORG
 10
0.0
 20
0.0
 30
0.0
  9
$UCSXDIR
 10
1.0
 20
0.0
 30
0.0
  9
$UCSYDIR
 10
0.0
 20
1.0
 30
0.0
  9
$UCSORTHOREF
  2

  9
$UCSORTHOVIEW
 70
     0
  9
$UCSORGTOP
 10
0.0
 20
0.0
 30
0.0
  9
$UCSORGBOTTOM
 10
0.0
 20
0.0
 30
0.0
  9
$UCSORGLEFT
 10
0.0
 20
0.0
 30
0.0
  9
$UCSORGRIGHT
 10
0.0
 20
0.0
 30
0.0
  9
$UCSORGFRONT
 10
0.0
 20
0.0
 30
0.0
  9
$UCSORGBACK
 10
0.0
 20
0.0
 30
0.0
  9
$PUCSBASE
  2

  9
$PUCSNAME
  2

  9
$PUCSORG
 10
0.0
 20
0.0
 30
0.0
  9
$PUCSXDIR
 10
1.0
 20
0.0
 30
0.0
  9
$PUCSYDIR
 10
0.0
 20
1.0
 30
0.0
  9
$PUCSORTHOREF
  2

  9
$PUCSORTHOVIEW
 70
     0
  9
$PUCSORGTOP
 10
0.0
 20
0.0
 30
0.0
  9
$PUCSORGBOTTOM
 10
0.0
 20
0.0
 30
0.0
  9
$PUCSORGLEFT
 10
0.0
 20
0.0
 30
0.0
  9
$PUCSORGRIGHT
 10
0.0
 20
0.0
 30
0.0
  9
$PUCSORGFRONT
 10
0.0
 20
0.0
 30
0.0
  9
$PUCSORGBACK
 10
0.0
 20
0.0
 30
0.0
  9
$USERI1
 70
     0
  9
$USERI2
 70
     0
  9
$USERI3
 70
     0
  9
$USERI4
 70
     0
  9
$USERI5
 70
     0
  9
$USERR1
 40
0.0
  9
$USERR2
 40
0.0
  9
$USERR3
 40
0.0
  9
$USERR4
 40
0.0
  9
$USERR5
 40
0.0
  9
$WORLDVIEW
 70
     1
  9
$SHADEDGE
 70
     3
  9
$SHADEDIF
 70
    70
  9
$TILEMODE
 70
     1
  9
$MAXACTVP
 70
    64
  9
$PINSBASE
 10
0.0
 20
0.0
 30
0.0
  9
$PLIMCHECK
 70
     0
  9
$PEXTMIN
 10
1.0000000000E+20
 20
1.0000000000E+20
 30
1.0000000000E+20
  9
$PEXTMAX
 10
-1.0000000000E+20
 20
-1.0000000000E+20
 30
-1.0000000000E+20
  9
$PLIMMIN
 10
0.0
 20
0.0
  9
$PLIMMAX
 10
420.0
 20
297.0
  9
$UNITMODE
 70
     0
  9
$VISRETAIN
 70
     1
  9
$PLINEGEN
 70
     0
  9
$PSLTSCALE
 70
     1
  9
$TREEDEPTH
 70
  3020
  9
$CMLSTYLE
  2
Standard
  9
$CMLJUST
 70
     0
  9
$CMLSCALE
 40
20.0
  9
$PROXYGRAPHICS
 70
     1
  9
$MEASUREMENT
 70
     1
  9
$CELWEIGHT
370
    -1
  9
$ENDCAPS
280
     0
  9
$JOINSTYLE
280
     0
  9
$LWDISPLAY
290
     1
  9
$INSUNITS
 70
     4
  9
$HYPERLINKBASE
  1

  9
$STYLESHEET
  1

  9
$XEDIT
290
     1
  9
$CEPSNTYPE
380
     0
  9
$PSTYLEMODE
290
     1
  9
$FINGERPRINTGUID
  2
{C0D320B8-52BA-470E-A60B-1680976BEAEF}
  9
$VERSIONGUID
  2
{FAEB1C32-E019-11D5-929B-00C0DF256EC4}
  9
$EXTNAMES
290
     1
  9
$PSVPSCALE
 40
0.0
  9
$OLESTARTUP
290
     0
  0
ENDSEC
  0
SECTION
  2
CLASSES
  0
CLASS
  1
ACDBDICTIONARYWDFLT
  2
AcDbDictionaryWithDefault
  3
ObjectDBX Classes
 90
        0
280
     0
281
     0
  0
CLASS
  1
VISUALSTYLE
  2
AcDbVisualStyle
  3
ObjectDBX Classes
 90
     4095
280
     0
281
     0
  0
CLASS
  1
MATERIAL
  2
AcDbMaterial
  3
ObjectDBX Classes
 90
     1153
280
     0
281
     0
  0
CLASS
  1
ACDBPLACEHOLDER
  2
AcDbPlaceHolder
  3
ObjectDBX Classes
 90
        0
280
     0
281
     0
  0
CLASS
  1
LAYOUT
  2
AcDbLayout
  3
ObjectDBX Classes
 90
        0
280
     0
281
     0
  0
ENDSEC
  0
SECTION
  2
TABLES
  0
TABLE
  2
VPORT
  5
8
330
0
100
AcDbSymbolTable
 70
     1
  0
VPORT
  5
29
330
8
100
AcDbSymbolTableRecord
100
AcDbViewportTableRecord
  2
*Active
 70
     0
 10
0.0
 20
0.0
 11
1.0
 21
1.0
 12
279.4
 22
215.9
 13
0.0
 23
0.0
 14
10.0
 24
10.0
 15
10.0
 25
10.0
 16
0.0
 26
0.0
 36
1.0
 17
0.0
 27
0.0
 37
0.0
 40
431.8
 41
1.2941176471
 42
50.0
 43
0.0
 44
0.0
 50
0.0
 51
0.0
 71
     0
 72
  2000
 73
     1
 74
     3
 75
     0
 76
     0
 77
     0
 78
     0
281
     0
 65
     1
110
0.0
120
0.0
130
0.0
111
1.0
121
0.0
131
0.0
112
0.0
122
1.0
132
0.0
 79
     0
146
0.0
  0
ENDTAB
  0
TABLE
  2
LTYPE
  5
5
330
0
100
AcDbSymbolTable
 70
     6
  0
LTYPE
  5
14
330
5
100
AcDbSymbolTableRecord
100
AcDbLinetypeTableRecord
  2
ByBlock
 70
     0
  3

 72
    65
 73
     0
 40
0.0
  0
LTYPE
  5
15
330
5
100
AcDbSymbolTableRecord
100
AcDbLinetypeTableRecord
  2
ByLayer
 70
     0
  3

 72
    65
 73
     0
 40
0.0
  0
LTYPE
  5
16
330
5
100
AcDbSymbolTableRecord
100
AcDbLinetypeTableRecord
  2
Continuous
 70
     0
  3
Solid line
 72
    65
 73
     0
 40
0.0
  0
LTYPE
  5
3F
330
5
100
AcDbSymbolTableRecord
100
AcDbLinetypeTableRecord
  2
HIDDEN
 70
     0
  3
Hidden __ __ __ __ __ __ __ __ __ __ __ __ __ __
 72
    65
 73
     2
 40
1.905
 49
1.27
 74
     0
 49
-0.635
 74
     0
  0
LTYPE
  5
40
330
5
100
AcDbSymbolTableRecord
100
AcDbLinetypeTableRecord
  2
PHANTOM
 70
     0
  3
Phantom ______  __  __  ______  __  __  ______
 72
    65
 73
     6
 40
12.7
 49
6.35
 74
     0
 49
-1.27
 74
     0
 49
1.27
 74
     0
 49
-1.27
 74
     0
 49
1.27
 74
     0
 49
-1.27
 74
     0
  0
LTYPE
  5
41
330
5
100
AcDbSymbolTableRecord
100
AcDbLinetypeTableRecord
  2
CENTER
 70
     0
  3
Center ____ _ ____ _ ____ _ ____ _ ____ _ ____
 72
    65
 73
     4
 40
10.16
 49
6.35
 74
     0
 49
-1.27
 74
     0
 49
1.27
 74
     0
 49
-1.27
 74
     0
  0
LTYPE
  5
42
330
5
100
AcDbSymbolTableRecord
100
AcDbLinetypeTableRecord
  2
CENTERX2
 70
     0
  3
Center (2x) ________  __  ________  __  _____
 72
    65
 73
     4
 40
20.32
 49
12.7
 74
     0
 49
-2.54
 74
     0
 49
2.54
 74
     0
 49
-2.54
 74
     0
  0
LTYPE
  5
43
330
5
100
AcDbSymbolTableRecord
100
AcDbLinetypeTableRecord
  2
DOT2
 70
     0
  3
Dot (.5x) ........................................
 72
    65
 73
     2
 40
0.635
 49
0.0
 74
     0
 49
-0.635
 74
     0
  0
ENDTAB
  0
TABLE
  2
LAYER
  5
2
330
0
100
AcDbSymbolTable
 70
    27
  0
LAYER
  5
10
330
2
100
AcDbSymbolTableRecord
100
AcDbLayerTableRecord
  2
0
 70
     0
 62
     7
  6
Continuous
370
    -3
390
F
  0
LAYER
  5
44
330
2
100
AcDbSymbolTableRecord
100
AcDbLayerTableRecord
  2
NEW_DIMS
 70
     0
 62
     1
  6
Continuous
370
    -3
390
F
  0
LAYER
  5
45
330
2
100
AcDbSymbolTableRecord
100
AcDbLayerTableRecord
  2
HIDDEN_DIMS
 70
     0
 62
    -3
  6
Continuous
370
    -3
390
F
  0
LAYER
  5
46
330
2
100
AcDbSymbolTableRecord
100
AcDbLayerTableRecord
  2
FORMAT
 70
     0
 62
     7
  6
Continuous
370
    -3
390
F
  0
LAYER
  5
47
330
2
100
AcDbSymbolTableRecord
100
AcDbLayerTableRecord
  2
BOARD_OUTLINE
 70
     0
 62
    98
  6
Continuous
370
    -3
390
F
  0
LAYER
  5
48
330
2
100
AcDbSymbolTableRecord
100
AcDbLayerTableRecord
  2
REMINDERS
 70
     0
 62
     1
  6
Continuous
370
    -3
390
F
  0
LAYER
  5
49
330
2
100
AcDbSymbolTableRecord
100
AcDbLayerTableRecord
  2
DIM
 70
     0
 62
   131
  6
Continuous
370
    -3
390
F
  0
LAYER
  5
4A
330
2
100
AcDbSymbolTableRecord
100
AcDbLayerTableRecord
  2
BOARD_CUTOUT
 70
     0
 62
     3
  6
Continuous
370
    -3
390
F
  0
LAYER
  5
4B
330
2
100
AcDbSymbolTableRecord
100
AcDbLayerTableRecord
  2
DRILLED_HOLES
 70
     0
 62
    56
  6
Continuous
370
    -3
390
F
  0
LAYER
  5
4C
330
2
100
AcDbSymbolTableRecord
100
AcDbLayerTableRecord
  2
NEAR_COMPONENT
 70
     0
 62
    11
  6
Continuous
370
    -3
390
F
  0
LAYER
  5
4D
330
2
100
AcDbSymbolTableRecord
100
AcDbLayerTableRecord
  2
NEAR_KEEPOUT
 70
     0
 62
     1
  6
Continuous
370
    -3
390
F
  0
LAYER
  5
4E
330
2
100
AcDbSymbolTableRecord
100
AcDbLayerTableRecord
  2
NEAR_HEIGHT
 70
     0
 62
   144
  6
Continuous
370
    -3
390
F
  0
LAYER
  5
4F
330
2
100
AcDbSymbolTableRecord
100
AcDbLayerTableRecord
  2
FAR_COMPONENT
 70
     0
 62
    16
  6
Continuous
370
    -3
390
F
  0
LAYER
  5
50
330
2
100
AcDbSymbolTableRecord
100
AcDbLayerTableRecord
  2
FAR_KEEPOUT
 70
     0
 62
    11
  6
Continuous
370
    -3
390
F
  0
LAYER
  5
51
330
2
100
AcDbSymbolTableRecord
100
AcDbLayerTableRecord
  2
FAR_HEIGHT
 70
     0
 62
   171
  6
Continuous
370
    -3
390
F
  0
LAYER
  5
52
330
2
100
AcDbSymbolTableRecord
100
AcDbLayerTableRecord
  2
NEAR_HEIGHT_TEXT
 70
     0
 62
     7
  6
Continuous
370
    -3
390
F
  0
LAYER
  5
53
330
2
100
AcDbSymbolTableRecord
100
AcDbLayerTableRecord
  2
NEAR_COMPONENT_TEXT
 70
     0
 62
     7
  6
Continuous
370
    -3
390
F
  0
LAYER
  5
54
330
2
100
AcDbSymbolTableRecord
100
AcDbLayerTableRecord
  2
FAR_HEIGHT_TEXT
 70
     0
 62
     7
  6
Continuous
370
    -3
390
F
  0
LAYER
  5
55
330
2
100
AcDbSymbolTableRecord
100
AcDbLayerTableRecord
  2
FAR_COMPONENT_TEXT
 70
     0
 62
     7
  6
Continuous
370
    -3
390
F
  0
LAYER
  5
56
330
2
100
AcDbSymbolTableRecord
100
AcDbLayerTableRecord
  2
NEAR_COPPER
 70
     0
 62
     1
  6
Continuous
370
    -3
390
F
  0
LAYER
  5
57
330
2
100
AcDbSymbolTableRecord
100
AcDbLayerTableRecord
  2
FAR_COPPER
 70
     0
 62
     1
  6
Continuous
370
    -3
390
F
  0
LAYER
  5
58
330
2
100
AcDbSymbolTableRecord
100
AcDbLayerTableRecord
  2
NEAR_COPPER_CUTOUT
 70
     0
 62
     5
  6
Continuous
370
    -3
390
F
  0
LAYER
  5
59
330
2
100
AcDbSymbolTableRecord
100
AcDbLayerTableRecord
  2
FAR_COPPER_CUTOUT
 70
     0
 62
     5
  6
Continuous
370
    -3
390
F
  0
LAYER
  5
5A
330
2
100
AcDbSymbolTableRecord
100
AcDbLayerTableRecord
  2
NEAR_SMASK
 70
     0
 62
     4
  6
Continuous
370
    -3
390
F
  0
LAYER
  5
5B
330
2
100
AcDbSymbolTableRecord
100
AcDbLayerTableRecord
  2
FAR_SMASK
 70
     0
 62
     4
  6
Continuous
370
    -3
390
F
  0
LAYER
  5
5C
330
2
100
AcDbSymbolTableRecord
100
AcDbLayerTableRecord
  2
NEAR_SMASK_CUTOUT
 70
     0
 62
     3
  6
Continuous
370
    -3
390
F
  0
LAYER
  5
5D
330
2
100
AcDbSymbolTableRecord
100
AcDbLayerTableRecord
  2
FAR_SMASK_CUTOUT
 70
     0
 62
     6
  6
Continuous
370
    -3
390
F
  0
ENDTAB
  0
TABLE
  2
STYLE
  5
3
330
0
100
AcDbSymbolTable
 70
     2
  0
STYLE
  5
11
330
3
100
AcDbSymbolTableRecord
100
AcDbTextStyleTableRecord
  2
Standard
 70
     0
 40
0.0
 41
1.0
 50
0.0
 71
     0
 42
4.2333333333
  3
txt
  4

  0
STYLE
  5
69
330
3
100
AcDbSymbolTableRecord
100
AcDbTextStyleTableRecord
  2
SLDTEXTSTYLE0
 70
     0
 40
0.0
 41
0.75
 50
0.0
 71
     0
 42
0.2
  3
TXT
  4

  0
ENDTAB
  0
TABLE
  2
VIEW
  5
6
330
0
100
AcDbSymbolTable
 70
     0
  0
ENDTAB
  0
TABLE
  2
UCS
  5
7
330
0
100
AcDbSymbolTable
 70
     0
  0
ENDTAB
  0
TABLE
  2
APPID
  5
9
330
0
100
AcDbSymbolTable
 70
     1
  0
APPID
  5
12
330
9
100
AcDbSymbolTableRecord
100
AcDbRegAppTableRecord
  2
ACAD
 70
     0
  0
ENDTAB
  0
TABLE
  2
DIMSTYLE
  5
A
330
0
100
AcDbSymbolTable
 70
     5
100
AcDbDimStyleTable
  0
DIMSTYLE
105
27
330
A
100
AcDbSymbolTableRecord
100
AcDbDimStyleTableRecord
  2
ISO-25
 70
     0
 41
2.5
 42
0.625
 43
3.75
 44
1.25
 73
     0
 74
     0
 77
     1
 78
     8
140
2.5
141
2.5
143
0.0393700787
147
0.625
171
     3
172
     1
178
     0
271
     2
272
     2
274
     3
278
    44
283
     0
284
     8
340
11
  0
DIMSTYLE
105
91
102
{ACAD_REACTORS
330
90
102
}
330
A
100
AcDbSymbolTableRecord
100
AcDbDimStyleTableRecord
  2
SLDDIMSTYLE0
 70
     0
 41
3.0
 44
0.0
 45
0.000000001
 78
     4
 79
     1
140
3.175
143
0.0393700787
147
0.79375
148
0.000000001
170
     1
173
     1
178
     0
271
     1
272
     2
274
     3
276
     2
284
    12
340
69
  0
DIMSTYLE
105
A4
102
{ACAD_REACTORS
330
A3
102
}
330
A
100
AcDbSymbolTableRecord
100
AcDbDimStyleTableRecord
  2
SLDDIMSTYLE1
 70
     0
 41
3.0
 44
0.0
 45
0.000000001
 78
    12
 79
     3
140
3.175
143
0.0393700787
147
0.79375
148
0.000000001
170
     1
173
     1
178
     0
271
     1
272
     2
274
     3
276
     2
284
    12
340
69
  0
DIMSTYLE
105
B7
102
{ACAD_REACTORS
330
B6
102
}
330
A
100
AcDbSymbolTableRecord
100
AcDbDimStyleTableRecord
  2
SLDDIMSTYLE2
 70
     0
 41
3.0
 44
0.0
 45
0.000000001
 78
    12
 79
     3
140
3.175
141
0.0
143
0.0393700787
147
0.79375
148
0.000000001
170
     1
173
     1
178
     0
271
     1
272
     2
274
     3
276
     2
284
    12
340
69
  0
DIMSTYLE
105
CF
330
A
100
AcDbSymbolTableRecord
100
AcDbDimStyleTableRecord
  2
SLDDIMSTYLE3
 70
     0
 41
3.0
 44
0.0
 45
0.000000001
140
0.0
146
3.0
147
0.0
173
     1
178
     0
271
     0
272
     0
276
     2
340
11
  0
ENDTAB
  0
TABLE
  2
BLOCK_RECORD
  5
1
330
0
100
AcDbSymbolTable
 70
     7
  0
BLOCK_RECORD
  5
1F
330
1
100
AcDbSymbolTableRecord
100
AcDbBlockTableRecord
  2
*Model_Space
340
22
  0
BLOCK_RECORD
  5
1B
330
1
100
AcDbSymbolTableRecord
100
AcDbBlockTableRecord
  2
*Paper_Space
340
1E
  0
BLOCK_RECORD
  5
23
330
1
100
AcDbSymbolTableRecord
100
AcDbBlockTableRecord
  2
*Paper_Space0
340
26
  0
BLOCK_RECORD
  5
5E
330
1
100
AcDbSymbolTableRecord
100
AcDbBlockTableRecord
  2
Sheet2Block
340
0
  0
BLOCK_RECORD
  5
76
330
1
100
AcDbSymbolTableRecord
100
AcDbBlockTableRecord
  2
SW_NOTE_0
340
0
102
{BLKREFS
331
7B
102
}
  0
BLOCK_RECORD
  5
92
330
1
100
AcDbSymbolTableRecord
100
AcDbBlockTableRecord
  2
_D
340
0
  0
BLOCK_RECORD
  5
A5
330
1
100
AcDbSymbolTableRecord
100
AcDbBlockTableRecord
  2
_D_1
340
0
  0
BLOCK_RECORD
  5
B8
330
1
100
AcDbSymbolTableRecord
100
AcDbBlockTableRecord
  2
_D_2
340
0
  0
BLOCK_RECORD
  5
C7
330
1
100
AcDbSymbolTableRecord
100
AcDbBlockTableRecord
  2
SW_NOTE_1
340
0
102
{BLKREFS
331
CE
102
}
  0
ENDTAB
  0
ENDSEC
  0
SECTION
  2
BLOCKS
  0
BLOCK
  5
20
330
1F
100
AcDbEntity
  8
0
100
AcDbBlockBegin
  2
*Model_Space
 70
     0
 10
0.0
 20
0.0
 30
0.0
  3
*Model_Space
  1

  0
ENDBLK
  5
21
330
1F
100
AcDbEntity
  8
0
100
AcDbBlockEnd
  0
BLOCK
  5
1C
330
1B
100
AcDbEntity
 67
     1
  8
0
100
AcDbBlockBegin
  2
*Paper_Space
 70
     0
 10
0.0
 20
0.0
 30
0.0
  3
*Paper_Space
  1

  0
ENDBLK
  5
1D
330
1B
100
AcDbEntity
 67
     1
  8
0
100
AcDbBlockEnd
  0
BLOCK
  5
24
330
23
100
AcDbEntity
  8
0
100
AcDbBlockBegin
  2
*Paper_Space0
 70
     0
 10
0.0
 20
0.0
 30
0.0
  3
*Paper_Space0
  1

  0
ENDBLK
  5
25
330
23
100
AcDbEntity
  8
0
100
AcDbBlockEnd
  0
BLOCK
  5
5F
330
5E
100
AcDbEntity
  8
0
100
AcDbBlockBegin
  2
Sheet2Block
 70
     2
 10
0.0
 20
0.0
 30
0.0
  3
Sheet2Block
  1

  0
LINE
  5
61
330
5E
100
AcDbEntity
  8
0
  6
Continuous
 62
     7
370
    30
100
AcDbLine
 10
186.0924158295
 20
112.0500179748
 30
0.0
 11
146.6700220672
 21
112.0500179748
 31
0.0
  0
LINE
  5
62
330
5E
100
AcDbEntity
  8
0
  6
Continuous
 62
     7
370
    30
100
AcDbLine
 10
164.831978929
 20
104.7879154023
 30
0.0
 11
164.831978929
 21
112.0500179748
 31
0.0
  0
LINE
  5
63
330
5E
100
AcDbEntity
  8
0
  6
Continuous
 62
     7
370
    30
100
AcDbLine
 10
186.0924158295
 20
120.9931154023
 30
0.0
 11
186.0924158295
 21
104.7879154023
 31
0.0
  0
LINE
  5
64
330
5E
100
AcDbEntity
  8
0
  6
Continuous
 62
     7
370
    30
100
AcDbLine
 10
146.6700220672
 20
120.9931154023
 30
0.0
 11
198.7968313079
 21
120.9931154023
 31
0.0
  0
LINE
  5
65
330
5E
100
AcDbEntity
  8
0
  6
Continuous
 62
     7
370
    30
100
AcDbLine
 10
146.6700220672
 20
104.7879154023
 30
0.0
 11
198.7968313079
 21
104.7879154023
 31
0.0
  0
LINE
  5
66
330
5E
100
AcDbEntity
  8
0
  6
Continuous
 62
     7
370
    30
100
AcDbLine
 10
198.7968313079
 20
104.7879154023
 30
0.0
 11
198.7968313079
 21
120.9931154023
 31
0.0
  0
LINE
  5
67
330
5E
100
AcDbEntity
  8
0
  6
Continuous
 62
     7
370
    30
100
AcDbLine
 10
146.6700220672
 20
120.9931154023
 30
0.0
 11
146.6700220672
 21
104.7879154023
 31
0.0
  0
LINE
  5
68
330
5E
100
AcDbEntity
  8
FORMAT
 62
     7
370
    30
100
AcDbLine
 10
153.839049613
 20
104.7879154023
 30
0.0
 11
153.839049613
 21
112.0500179748
 31
0.0
  0
MTEXT
  5
6A
330
5E
100
AcDbEntity
  8
FORMAT
100
AcDbMText
 10
148.4544557823
 20
111.3707311206
 30
0.0
 40
1.524
 41
0.0
 71
     1
 72
     1
  1
SIZE
  7
SLDTEXTSTYLE0
 73
     1
 44
1.0
  0
MTEXT
  5
6B
330
5E
100
AcDbEntity
  8
0
  6
Continuous
 62
     7
370
     0
100
AcDbMText
 10
148.2571563815
 20
119.6091933105
 30
0.0
 40
1.524
 41
0.0
 71
     1
 72
     1
  1
DWG. NO.
  7
SLDTEXTSTYLE0
 73
     1
 44
1.0
  0
MTEXT
  5
6C
330
5E
100
AcDbEntity
  8
0
  6
Continuous
 62
     7
370
     0
100
AcDbMText
 10
178.2519246613
 20
111.3707311206
 30
0.0
 40
1.524
 41
0.0
 71
     1
 72
     1
  1
OF
  7
SLDTEXTSTYLE0
 73
     1
 44
1.0
  0
MTEXT
  5
6D
330
5E
100
AcDbEntity
  8
0
  6
Continuous
 62
     7
370
     0
100
AcDbMText
 10
166.6670671132
 20
111.3707311206
 30
0.0
 40
1.524
 41
0.0
 71
     1
 72
     1
  1
SHT
  7
SLDTEXTSTYLE0
 73
     1
 44
1.0
  0
MTEXT
  5
6E
330
5E
100
AcDbEntity
  8
0
  6
Continuous
 62
     7
370
     0
100
AcDbMText
 10
156.020193134
 20
111.3707311206
 30
0.0
 40
1.524
 41
0.0
 71
     1
 72
     1
  1
SCALE
  7
SLDTEXTSTYLE0
 73
     1
 44
1.0
  0
MTEXT
  5
6F
330
5E
100
AcDbEntity
  8
0
  6
Continuous
 62
     7
370
     0
100
AcDbMText
 10
190.8082488515
 20
119.6091933105
 30
0.0
 40
1.524
 41
0.0
 71
     1
 72
     1
  1
REV.
  7
SLDTEXTSTYLE0
 73
     1
 44
1.0
  0
ATTDEF
  5
70
330
5E
100
AcDbEntity
  8
0
  6
Continuous
 62
     7
370
     0
100
AcDbText
 10
180.7550307684
 20
106.3461161607
 30
0.0
 40
2.6458333333
  1
1
 41
0.75
  7
SLDTEXTSTYLE0
 11
180.7550307684
 21
105.4114489135
 31
0.0
100
AcDbAttributeDefinition
  3

  2
AUTOATTR0
 70
     0
 74
     1
  0
ATTDEF
  5
71
330
5E
100
AcDbEntity
  8
FORMAT
 62
     7
100
AcDbText
 10
148.8088777714
 20
106.2345128174
 30
0.0
 40
2.6458333333
  1
C
 41
0.75
  7
SLDTEXTSTYLE0
 11
148.8088777714
 21
105.2998455702
 31
0.0
100
AcDbAttributeDefinition
  3

  2
AUTOATTR2
 70
     0
 74
     1
  0
ATTDEF
  5
72
330
5E
100
AcDbEntity
  8
0
  6
Continuous
 62
     7
370
     0
100
AcDbText
 10
170.2762811099
 20
106.3461161607
 30
0.0
 40
2.6458333333
  1
1
 41
0.75
  7
SLDTEXTSTYLE0
 11
170.2762811099
 21
105.4114489135
 31
0.0
100
AcDbAttributeDefinition
  3

  2
AUTOATTR3
 70
     0
 74
     1
  0
ATTDEF
  5
73
330
5E
100
AcDbEntity
  8
0
  6
Continuous
 62
     7
370
     0
100
AcDbText
 10
157.0259823045
 20
106.3461161607
 30
0.0
 40
2.6458333333
  1
1:1
 41
0.75
  7
SLDTEXTSTYLE0
 11
157.0259823045
 21
105.4114489135
 31
0.0
100
AcDbAttributeDefinition
  3

  2
AUTOATTR1
 70
     0
 74
     1
  0
ATTDEF
  5
74
330
5E
100
AcDbEntity
  8
FORMAT
 62
     7
100
AcDbText
 10
0.0
 20
0.0
 30
0.0
 40
1.0
  1

100
AcDbAttributeDefinition
  3

  2
AUTOATTR5
 70
     0
  0
ATTDEF
  5
75
330
5E
100
AcDbEntity
  8
FORMAT
 62
     7
100
AcDbText
 10
151.0184021507
 20
113.5421215703
 30
0.0
 40
3.7041666667
  1
DRAW1
 41
0.75
  7
SLDTEXTSTYLE0
 11
151.0184021507
 21
112.2335874243
 31
0.0
100
AcDbAttributeDefinition
  3

  2
AUTOATTR21
 70
     0
 74
     1
  0
ENDBLK
  5
60
330
5E
100
AcDbEntity
  8
0
100
AcDbBlockEnd
  0
BLOCK
  5
77
330
76
100
AcDbEntity
  8
0
100
AcDbBlockBegin
  2
SW_NOTE_0
 70
     0
 10
0.0
 20
0.0
 30
0.0
  3
SW_NOTE_0
  1

  0
MTEXT
  5
79
330
76
100
AcDbEntity
  8
FORMAT
 62
     0
100
AcDbMText
 10
0.0
 20
4.0927900738
 30
0.0
 40
3.175
 41
0.0
 71
     1
 72
     1
  1
ENSURE DIMENSIONS MATCH THOSE IN LATEST VERSION OF INSTALLATION MANUAL 190-01115-01 PRIOR TO CUTTING PANEL
  7
SLDTEXTSTYLE0
 73
     1
 44
1.0
  0
MTEXT
  5
7A
330
76
100
AcDbEntity
  8
FORMAT
 62
     0
100
AcDbMText
 10
0.0
 20
-0.1405432084
 30
0.0
 40
3.175
 41
0.0
 71
     1
 72
     1
  1
DIMENSIONS: [IN]mm
  7
SLDTEXTSTYLE0
 73
     1
 44
1.0
  0
ENDBLK
  5
78
330
76
100
AcDbEntity
  8
0
100
AcDbBlockEnd
  0
BLOCK
  5
93
330
92
100
AcDbEntity
  8
0
100
AcDbBlockBegin
  2
_D
 70
     0
 10
0.0
 20
0.0
 30
0.0
  3
_D
  1

  0
SOLID
  5
95
330
92
100
AcDbEntity
  8
FORMAT
100
AcDbTrace
 10
306.9449796454
 20
297.1498073209
 30
0.0
 11
306.1949796454
 21
294.1498073209
 31
0.0
 12
307.6949796454
 22
294.1498073209
 32
0.0
 13
307.6949796454
 23
294.1498073209
 33
0.0
  0
SOLID
  5
96
330
92
100
AcDbEntity
  8
FORMAT
100
AcDbTrace
 10
306.9449796454
 20
160.1498073209
 30
0.0
 11
307.6949796454
 21
163.1498073209
 31
0.0
 12
306.1949796454
 22
163.1498073209
 32
0.0
 13
306.1949796454
 23
163.1498073209
 33
0.0
  0
LINE
  5
97
330
92
100
AcDbEntity
  8
FORMAT
100
AcDbLine
 10
302.0362236708
 20
216.2749339755
 30
0.0
 11
301.3924042167
 21
216.2749339755
 31
0.0
  0
LINE
  5
98
330
92
100
AcDbEntity
  8
FORMAT
100
AcDbLine
 10
301.3924042167
 20
216.2749339755
 30
0.0
 11
301.3924042167
 21
211.2302119772
 31
0.0
  0
LINE
  5
99
330
92
100
AcDbEntity
  8
FORMAT
100
AcDbLine
 10
301.3924042167
 20
211.2302119772
 30
0.0
 11
302.0362236708
 21
211.2302119772
 31
0.0
  0
LINE
  5
9A
330
92
100
AcDbEntity
  8
FORMAT
100
AcDbLine
 10
311.8537351543
 20
216.2749339755
 30
0.0
 11
312.4975546085
 21
216.2749339755
 31
0.0
  0
LINE
  5
9B
330
92
100
AcDbEntity
  8
FORMAT
100
AcDbLine
 10
312.4975546085
 20
216.2749339755
 30
0.0
 11
312.4975546085
 21
211.2302119772
 31
0.0
  0
LINE
  5
9C
330
92
100
AcDbEntity
  8
FORMAT
100
AcDbLine
 10
312.4975546085
 20
211.2302119772
 30
0.0
 11
311.8537351543
 21
211.2302119772
 31
0.0
  0
LINE
  5
9D
330
92
100
AcDbEntity
  8
FORMAT
100
AcDbLine
 10
306.9449796454
 20
297.1498073209
 30
0.0
 11
306.9449796454
 21
216.918753546
 31
0.0
  0
LINE
  5
9E
330
92
100
AcDbEntity
  8
FORMAT
100
AcDbLine
 10
306.9449796454
 20
160.1498073209
 30
0.0
 11
306.9449796454
 21
206.3530591245
 31
0.0
  0
MTEXT
  5
9F
330
92
100
AcDbEntity
  8
FORMAT
100
AcDbMText
 10
300.9301183478
 20
210.4458496639
 30
0.1
 40
3.175
 41
0.0
 71
     1
 72
     1
  1

  7
SLDTEXTSTYLE0
 73
     1
 44
1.0
  0
MTEXT
  5
A0
330
92
100
AcDbEntity
  8
FORMAT
100
AcDbMText
 10
302.8409979884
 20
215.3230015853
 30
0.1
 40
3.175
 41
0.0
 71
     1
 72
     1
  1
5.39
  7
SLDTEXTSTYLE0
 73
     1
 44
1.0
  0
MTEXT
  5
A1
330
92
100
AcDbEntity
  8
FORMAT
100
AcDbMText
 10
301.6680115248
 20
210.4458491983
 30
0.1
 40
3.175
 41
0.0
 71
     1
 72
     1
  1
137.0
  7
SLDTEXTSTYLE0
 73
     1
 44
1.0
  0
MTEXT
  5
A2
330
92
100
AcDbEntity
  8
FORMAT
100
AcDbMText
 10
314.1710443155
 20
210.4458496639
 30
0.1
 40
3.175
 41
0.0
 71
     1
 72
     1
  1

  7
SLDTEXTSTYLE0
 73
     1
 44
1.0
  0
ENDBLK
  5
94
330
92
100
AcDbEntity
  8
0
100
AcDbBlockEnd
  0
BLOCK
  5
A6
330
A5
100
AcDbEntity
  8
0
100
AcDbBlockBegin
  2
_D_1
 70
     0
 10
0.0
 20
0.0
 30
0.0
  3
_D_1
  1

  0
SOLID
  5
A8
330
A5
100
AcDbEntity
  8
FORMAT
100
AcDbTrace
 10
160.2595227321
 20
181.891822165
 30
0.0
 11
163.2595227321
 21
181.141822165
 31
0.0
 12
163.2595227321
 22
182.641822165
 32
0.0
 13
163.2595227321
 23
182.641822165
 33
0.0
  0
SOLID
  5
A9
330
A5
100
AcDbEntity
  8
FORMAT
100
AcDbTrace
 10
349.7595227321
 20
181.891822165
 30
0.0
 11
346.7595227321
 21
182.641822165
 31
0.0
 12
346.7595227321
 22
181.141822165
 32
0.0
 13
346.7595227321
 23
181.141822165
 33
0.0
  0
LINE
  5
AA
330
A5
100
AcDbEntity
  8
FORMAT
100
AcDbLine
 10
226.7801070955
 20
186.5308498053
 30
0.0
 11
226.1362876414
 21
186.5308498053
 31
0.0
  0
LINE
  5
AB
330
A5
100
AcDbEntity
  8
FORMAT
100
AcDbLine
 10
226.1362876414
 20
186.5308498053
 30
0.0
 11
226.1362876414
 21
181.486127807
 31
0.0
  0
LINE
  5
AC
330
A5
100
AcDbEntity
  8
FORMAT
100
AcDbLine
 10
226.1362876414
 20
181.486127807
 30
0.0
 11
226.7801070955
 21
181.486127807
 31
0.0
  0
LINE
  5
AD
330
A5
100
AcDbEntity
  8
FORMAT
100
AcDbLine
 10
236.5976185791
 20
186.5308498053
 30
0.0
 11
237.2414380332
 21
186.5308498053
 31
0.0
  0
LINE
  5
AE
330
A5
100
AcDbEntity
  8
FORMAT
100
AcDbLine
 10
237.2414380332
 20
186.5308498053
 30
0.0
 11
237.2414380332
 21
181.486127807
 31
0.0
  0
LINE
  5
AF
330
A5
100
AcDbEntity
  8
FORMAT
100
AcDbLine
 10
237.2414380332
 20
181.486127807
 30
0.0
 11
236.5976185791
 21
181.486127807
 31
0.0
  0
LINE
  5
B0
330
A5
100
AcDbEntity
  8
FORMAT
100
AcDbLine
 10
160.2595227321
 20
181.891822165
 30
0.0
 11
223.8394428907
 21
181.891822165
 31
0.0
  0
LINE
  5
B1
330
A5
100
AcDbEntity
  8
FORMAT
100
AcDbLine
 10
349.7595227321
 20
181.891822165
 30
0.0
 11
239.5382832496
 21
181.891822165
 31
0.0
  0
MTEXT
  5
B2
330
A5
100
AcDbEntity
  8
FORMAT
100
AcDbMText
 10
225.6740017725
 20
180.7017654937
 30
0.1
 40
3.175
 41
0.0
 71
     1
 72
     1
  1

  7
SLDTEXTSTYLE0
 73
     1
 44
1.0
  0
MTEXT
  5
B3
330
A5
100
AcDbEntity
  8
FORMAT
100
AcDbMText
 10
227.5848814132
 20
185.5789174151
 30
0.1
 40
3.175
 41
0.0
 71
     1
 72
     1
  1
7.46
  7
SLDTEXTSTYLE0
 73
     1
 44
1.0
  0
MTEXT
  5
B4
330
A5
100
AcDbEntity
  8
FORMAT
100
AcDbMText
 10
226.4118949496
 20
180.7017650281
 30
0.1
 40
3.175
 41
0.0
 71
     1
 72
     1
  1
189.5
  7
SLDTEXTSTYLE0
 73
     1
 44
1.0
  0
MTEXT
  5
B5
330
A5
100
AcDbEntity
  8
FORMAT
100
AcDbMText
 10
238.9149277402
 20
180.7017654937
 30
0.1
 40
3.175
 41
0.0
 71
     1
 72
     1
  1

  7
SLDTEXTSTYLE0
 73
     1
 44
1.0
  0
ENDBLK
  5
A7
330
A5
100
AcDbEntity
  8
0
100
AcDbBlockEnd
  0
BLOCK
  5
B9
330
B8
100
AcDbEntity
  8
0
100
AcDbBlockBegin
  2
_D_2
 70
     0
 10
0.0
 20
0.0
 30
0.0
  3
_D_2
  1

  0
SOLID
  5
BB
330
B8
100
AcDbEntity
  8
FORMAT
100
AcDbTrace
 10
349.2045452232
 20
292.6016226871
 30
0.0
 11
352.2639233181
 21
293.0518511538
 31
0.0
 12
351.6921242638
 22
294.4385904376
 32
0.0
 13
351.6921242638
 23
294.4385904376
 33
0.0
  0
LINE
  5
BC
330
B8
100
AcDbEntity
  8
FORMAT
100
AcDbLine
 10
372.4222471255
 20
305.5071864861
 30
0.0
 11
371.7784276714
 21
305.5071864861
 31
0.0
  0
LINE
  5
BD
330
B8
100
AcDbEntity
  8
FORMAT
100
AcDbLine
 10
371.7784276714
 20
305.5071864861
 30
0.0
 11
371.7784276714
 21
300.4624644878
 31
0.0
  0
LINE
  5
BE
330
B8
100
AcDbEntity
  8
FORMAT
100
AcDbLine
 10
371.7784276714
 20
300.4624644878
 30
0.0
 11
372.4222471255
 21
300.4624644878
 31
0.0
  0
LINE
  5
BF
330
B8
100
AcDbEntity
  8
FORMAT
100
AcDbLine
 10
379.8937863802
 20
305.5071864861
 30
0.0
 11
380.5376058344
 21
305.5071864861
 31
0.0
  0
LINE
  5
C0
330
B8
100
AcDbEntity
  8
FORMAT
100
AcDbLine
 10
380.5376058344
 20
305.5071864861
 30
0.0
 11
380.5376058344
 21
300.4624644878
 31
0.0
  0
LINE
  5
C1
330
B8
100
AcDbEntity
  8
FORMAT
100
AcDbLine
 10
380.5376058344
 20
300.4624644878
 30
0.0
 11
379.8937863802
 21
300.4624644878
 31
0.0
  0
LINE
  5
C2
330
B8
100
AcDbEntity
  8
FORMAT
100
AcDbLine
 10
349.2045452232
 20
292.6016226871
 30
0.0
 11
368.2955630808
 21
300.473488786
 31
0.0
  0
LINE
  5
C3
330
B8
100
AcDbEntity
  8
FORMAT
100
AcDbLine
 10
368.2955630808
 20
300.473488786
 30
0.0
 11
371.2955630808
 21
300.473488786
 31
0.0
  0
MTEXT
  5
C4
330
B8
100
AcDbEntity
  8
FORMAT
100
AcDbMText
 10
373.2270214431
 20
304.555254096
 30
0.1
 40
3.175
 41
0.0
 71
     1
 72
     1
  1
.29
  7
SLDTEXTSTYLE0
 73
     1
 44
1.0
  0
MTEXT
  5
C5
330
B8
100
AcDbEntity
  8
FORMAT
100
AcDbMText
 10
371.942322371
 20
299.6781017089
 30
0.1
 40
3.175
 41
0.0
 71
     1
 72
     1
  1
R7.4
  7
SLDTEXTSTYLE0
 73
     1
 44
1.0
  0
MTEXT
  5
C6
330
B8
100
AcDbEntity
  8
FORMAT
100
AcDbMText
 10
382.2110956578
 20
299.6781021746
 30
0.1
 40
3.175
 41
0.0
 71
     1
 72
     1
  1
(4X)
  7
SLDTEXTSTYLE0
 73
     1
 44
1.0
  0
ENDBLK
  5
BA
330
B8
100
AcDbEntity
  8
0
100
AcDbBlockEnd
  0
BLOCK
  5
C8
330
C7
100
AcDbEntity
  8
0
100
AcDbBlockBegin
  2
SW_NOTE_1
 70
     0
 10
0.0
 20
0.0
 30
0.0
  3
SW_NOTE_1
  1

  0
MTEXT
  5
CA
330
C7
100
AcDbEntity
  8
FORMAT
 62
     0
100
AcDbMText
 10
-8.4708485468
 20
14.353469226
 30
0.0
 40
3.175
 41
0.0
 71
     1
 72
     1
  1
6-32 CLEARANCE HOLE (FOR USE WITH NUT PLATE)
  7
SLDTEXTSTYLE0
 73
     1
 44
1.0
  0
MTEXT
  5
CB
330
C7
100
AcDbEntity
  8
FORMAT
 62
     0
100
AcDbMText
 10
-8.4708485468
 20
10.1201359439
 30
0.0
 40
3.175
 41
0.0
 71
     1
 72
     1
  1
-OR-
  7
SLDTEXTSTYLE0
 73
     1
 44
1.0
  0
MTEXT
  5
CC
330
C7
100
AcDbEntity
  8
FORMAT
 62
     0
100
AcDbMText
 10
-8.4708485468
 20
5.8868026617
 30
0.0
 40
3.175
 41
0.0
 71
     1
 72
     1
  1
6-32 TAPPED HOLE
  7
SLDTEXTSTYLE0
 73
     1
 44
1.0
  0
MTEXT
  5
CD
330
C7
100
AcDbEntity
  8
FORMAT
 62
     0
100
AcDbMText
 10
-8.4708485468
 20
1.6534693795
 30
0.0
 40
3.175
 41
0.0
 71
     1
 72
     1
  1
(4X)
  7
SLDTEXTSTYLE0
 73
     1
 44
1.0
  0
ENDBLK
  5
C9
330
C7
100
AcDbEntity
  8
0
100
AcDbBlockEnd
  0
ENDSEC
  0
SECTION
  2
ENTITIES
  0
INSERT
  5
7B
330
1F
100
AcDbEntity
  8
FORMAT
100
AcDbBlockReference
  2
SW_NOTE_0
 10
138.8729859607
 20
137.1635309162
 30
0.0
  0
LINE
  5
7C
330
1F
100
AcDbEntity
  8
FORMAT
100
AcDbLine
 10
342.4095227321
 20
297.1498073209
 30
0.0
 11
167.6095227321
 21
297.1498073209
 31
0.0
  0
LINE
  5
7D
330
1F
100
AcDbEntity
  8
FORMAT
100
AcDbLine
 10
160.2595227321
 20
289.7998073209
 30
0.0
 11
160.2595227321
 21
167.4998073209
 31
0.0
  0
LINE
  5
7E
330
1F
100
AcDbEntity
  8
FORMAT
100
AcDbLine
 10
167.6095227321
 20
160.1498073209
 30
0.0
 11
342.4095227321
 21
160.1498073209
 31
0.0
  0
LINE
  5
7F
330
1F
100
AcDbEntity
  8
FORMAT
100
AcDbLine
 10
349.7595227321
 20
167.4998073209
 30
0.0
 11
349.7595227321
 21
289.7998073209
 31
0.0
  0
LINE
  5
80
330
1F
100
AcDbEntity
  8
FORMAT
  6
CENTER
100
AcDbLine
 10
159.2095227321
 20
153.3998073209
 30
0.0
 11
350.8095227321
 21
153.3998073209
 31
0.0
  0
LINE
  5
81
330
1F
100
AcDbEntity
  8
FORMAT
  6
CENTER
100
AcDbLine
 10
153.5095227321
 20
298.1998073209
 30
0.0
 11
153.5095227321
 21
159.0998073209
 31
0.0
  0
LINE
  5
82
330
1F
100
AcDbEntity
  8
FORMAT
  6
CENTER
100
AcDbLine
 10
350.8095227321
 20
303.8998073209
 30
0.0
 11
159.2095227321
 21
303.8998073209
 31
0.0
  0
LINE
  5
83
330
1F
100
AcDbEntity
  8
FORMAT
  6
CENTER
100
AcDbLine
 10
356.5095227321
 20
159.0998073209
 30
0.0
 11
356.5095227321
 21
298.1998073209
 31
0.0
  0
CIRCLE
  5
84
330
1F
100
AcDbEntity
  8
FORMAT
100
AcDbCircle
 10
350.6595227321
 20
159.2498073209
 30
0.0
 40
1.898649999999944
  0
ARC
  5
85
330
1F
100
AcDbEntity
  8
FORMAT
100
AcDbCircle
 10
167.6095227321
 20
289.7998073209
 30
0.0
 40
7.350000000000023
100
AcDbArc
 50
90.0
 51
180.0
  0
ARC
  5
86
330
1F
100
AcDbEntity
  8
FORMAT
100
AcDbCircle
 10
167.6095227321
 20
167.4998073209
 30
0.0
 40
7.349999999999994
100
AcDbArc
 50
180.0
 51
270.0
  0
ARC
  5
87
330
1F
100
AcDbEntity
  8
FORMAT
100
AcDbCircle
 10
342.4095227321
 20
167.4998073209
 30
0.0
 40
7.350000000000023
100
AcDbArc
 50
270.0
 51
0.0
  0
ARC
  5
88
330
1F
100
AcDbEntity
  8
FORMAT
100
AcDbCircle
 10
342.4095227321
 20
289.7998073209
 30
0.0
 40
7.350000000000023
100
AcDbArc
 50
0.0
 51
90.0
  0
CIRCLE
  5
89
330
1F
100
AcDbEntity
  8
FORMAT
100
AcDbCircle
 10
159.3595227321
 20
159.2498073209
 30
0.0
 40
1.89864999999999
  0
CIRCLE
  5
8A
330
1F
100
AcDbEntity
  8
FORMAT
100
AcDbCircle
 10
159.3595227321
 20
298.0498073209
 30
0.0
 40
1.898649999999982
  0
CIRCLE
  5
8B
330
1F
100
AcDbEntity
  8
FORMAT
100
AcDbCircle
 10
350.6595227321
 20
298.0498073209
 30
0.0
 40
1.898649999999928
  0
ARC
  5
8C
330
1F
100
AcDbEntity
  8
FORMAT
  6
CENTER
100
AcDbCircle
 10
350.8095227321
 20
159.0998073209
 30
0.0
 40
5.700000000000045
100
AcDbArc
 50
270.0
 51
0.0
  0
ARC
  5
8D
330
1F
100
AcDbEntity
  8
FORMAT
  6
CENTER
100
AcDbCircle
 10
159.2095227321
 20
159.0998073209
 30
0.0
 40
5.69999999999996
100
AcDbArc
 50
180.0
 51
270.0
  0
ARC
  5
8E
330
1F
100
AcDbEntity
  8
FORMAT
  6
CENTER
100
AcDbCircle
 10
159.2095227321
 20
298.1998073209
 30
0.0
 40
5.699999999999989
100
AcDbArc
 50
90.0
 51
180.0
  0
ARC
  5
8F
330
1F
100
AcDbEntity
  8
FORMAT
  6
CENTER
100
AcDbCircle
 10
350.8095227321
 20
298.1998073209
 30
0.0
 40
5.700000000000045
100
AcDbArc
 50
0.0
 51
90.0
  0
DIMENSION
  5
90
330
1F
100
AcDbEntity
  8
FORMAT
100
AcDbDimension
  2
_D
 10
306.9449796454
 20
160.1498073209
 30
0.0
 11
306.9449796454
 21
211.6359063353
 31
0.0
 70
   160
  1
<>
 71
     2
 42
-1.0
  3
SLDDIMSTYLE0
100
AcDbAlignedDimension
 13
342.4095227321
 23
297.1498073209
 33
0.0
 14
342.4095227321
 24
160.1498073209
 34
0.0
 50
90.0
100
AcDbRotatedDimension
  0
DIMENSION
  5
A3
330
1F
100
AcDbEntity
  8
FORMAT
100
AcDbDimension
  2
_D_1
 10
349.7595227321
 20
181.891822165
 30
0.0
 11
231.6888630702
 21
181.891822165
 31
0.0
 70
   160
  1
<>
 71
     2
 42
-1.0
  3
SLDDIMSTYLE1
100
AcDbAlignedDimension
 13
160.2595227321
 23
167.4998073209
 33
0.0
 14
349.7595227321
 24
167.4998073209
 34
0.0
100
AcDbRotatedDimension
  0
DIMENSION
  5
B6
330
1F
100
AcDbEntity
  8
FORMAT
100
AcDbDimension
  2
_D_2
 10
342.4095227321
 20
289.7998073209
 30
0.0
 11
380.7676463811
 21
300.8681588459
 31
0.0
 70
   164
  1
<> (4X)
 71
     1
 42
-1.0
  3
SLDDIMSTYLE2
100
AcDbRadialDimension
 15
349.2045452232
 25
292.6016226871
 35
0.0
 40
0.0
  0
INSERT
  5
CE
102
{ACAD_REACTORS
330
D0
102
}
330
1F
100
AcDbEntity
  8
FORMAT
100
AcDbBlockReference
  2
SW_NOTE_1
 10
115.4648459816
 20
316.0997732426
 30
0.0
  0
LEADER
  5
D0
330
1F
100
AcDbEntity
  8
FORMAT
100
AcDbLeader
  3
SLDDIMSTYLE3
 73
     2
 76
     3
 10
157.7675052383
 20
299.0843855547
 30
0.0
 10
119.9648459816
 20
316.0997732426
 30
0.0
 10
115.4648459816
 20
316.0997732426
 30
0.0
340
CE
  0
MTEXT
  5
D1
330
1F
100
AcDbEntity
  8
FORMAT
100
AcDbMText
 10
374.0672198123
 20
249.5795864661
 30
0.0
 40
3.175
 41
0.0
 71
     1
 72
     1
  1
PANEL CUTOUT
  7
SLDTEXTSTYLE0
 73
     1
 44
1.0
  0
LEADER
  5
D2
330
1F
100
AcDbEntity
  8
FORMAT
100
AcDbLeader
  3
SLDDIMSTYLE3
 76
     3
 10
349.7595227321
 20
224.5521253341
 30
0.0
 10
369.0362811791
 20
248.0725623583
 30
0.0
 10
373.5362811791
 20
248.0725623583
 30
0.0
  0
ENDSEC
  0
SECTION
  2
OBJECTS
  0
DICTIONARY
  5
C
330
0
100
AcDbDictionary
281
     1
  3
ACAD_GROUP
350
D
  3
ACAD_LAYOUT
350
1A
  3
ACAD_MLINESTYLE
350
17
  3
ACAD_PLOTSETTINGS
350
19
  3
ACAD_PLOTSTYLENAME
350
E
  0
DICTIONARY
  5
D
102
{ACAD_REACTORS
330
C
102
}
330
C
100
AcDbDictionary
281
     1
  0
DICTIONARY
  5
1A
102
{ACAD_REACTORS
330
C
102
}
330
C
100
AcDbDictionary
281
     1
  3
Layout1
350
1E
  3
Layout2
350
26
  3
Model
350
22
  0
DICTIONARY
  5
17
102
{ACAD_REACTORS
330
C
102
}
330
C
100
AcDbDictionary
281
     1
  3
Standard
350
18
  0
DICTIONARY
  5
19
102
{ACAD_REACTORS
330
C
102
}
330
C
100
AcDbDictionary
281
     1
  0
ACDBDICTIONARYWDFLT
  5
E
102
{ACAD_REACTORS
330
C
102
}
330
C
100
AcDbDictionary
281
     1
  3
Normal
350
F
100
AcDbDictionaryWithDefault
340
F
  0
LAYOUT
  5
1E
102
{ACAD_REACTORS
330
1A
102
}
330
1A
100
AcDbPlotSettings
  1

  2
none_device
  4

  6

 40
0.0
 41
0.0
 42
0.0
 43
0.0
 44
0.0
 45
0.0
 46
0.0
 47
0.0
 48
0.0
 49
0.0
140
0.0
141
0.0
142
1.0
143
1.0
 70
   688
 72
     0
 73
     0
 74
     5
  7

 75
    16
147
1.0
148
0.0
149
0.0
100
AcDbLayout
  1
Layout1
 70
     1
 71
     1
 10
0.0
 20
0.0
 11
420.0
 21
297.0
 12
0.0
 22
0.0
 32
0.0
 14
1.0000000000E+20
 24
1.0000000000E+20
 34
1.0000000000E+20
 15
-1.0000000000E+20
 25
-1.0000000000E+20
 35
-1.0000000000E+20
146
0.0
 13
0.0
 23
0.0
 33
0.0
 16
1.0
 26
0.0
 36
0.0
 17
0.0
 27
1.0
 37
0.0
 76
     0
330
1B
  0
LAYOUT
  5
26
102
{ACAD_REACTORS
330
1A
102
}
330
1A
100
AcDbPlotSettings
  1

  2
none_device
  4

  6

 40
0.0
 41
0.0
 42
0.0
 43
0.0
 44
0.0
 45
0.0
 46
0.0
 47
0.0
 48
0.0
 49
0.0
140
0.0
141
0.0
142
1.0
143
1.0
 70
   688
 72
     0
 73
     0
 74
     5
  7

 75
    16
147
1.0
148
0.0
149
0.0
100
AcDbLayout
  1
Layout2
 70
     1
 71
     2
 10
0.0
 20
0.0
 11
0.0
 21
0.0
 12
0.0
 22
0.0
 32
0.0
 14
0.0
 24
0.0
 34
0.0
 15
0.0
 25
0.0
 35
0.0
146
0.0
 13
0.0
 23
0.0
 33
0.0
 16
1.0
 26
0.0
 36
0.0
 17
0.0
 27
1.0
 37
0.0
 76
     0
330
23
  0
LAYOUT
  5
22
102
{ACAD_REACTORS
330
1A
102
}
330
1A
100
AcDbPlotSettings
  1

  2
none_device
  4

  6

 40
0.0
 41
0.0
 42
0.0
 43
0.0
 44
0.0
 45
0.0
 46
0.0
 47
0.0
 48
0.0
 49
0.0
140
0.0
141
0.0
142
1.0
143
1.0
 70
  1712
 72
     0
 73
     0
 74
     0
  7

 75
     0
147
1.0
148
0.0
149
0.0
100
AcDbLayout
  1
Model
 70
     1
 71
     0
 10
0.0
 20
0.0
 11
558.8
 21
431.8
 12
0.0
 22
0.0
 32
0.0
 14
0.0
 24
0.0
 34
0.0
 15
558.8
 25
431.8
 35
0.0
146
0.0
 13
0.0
 23
0.0
 33
0.0
 16
1.0
 26
0.0
 36
0.0
 17
0.0
 27
1.0
 37
0.0
 76
     0
330
1F
331
29
  0
MLINESTYLE
  5
18
102
{ACAD_REACTORS
330
17
102
}
330
17
100
AcDbMlineStyle
  2
Standard
 70
     0
  3

 62
   256
 51
90.0
 52
90.0
 71
     2
 49
0.5
 62
   256
  6
BYLAYER
 49
-0.5
 62
   256
  6
BYLAYER
  0
ACDBPLACEHOLDER
  5
F
102
{ACAD_REACTORS
330
E
102
}
330
E
  0
ENDSEC
  0
EOF
